Audio Live-CD brennen

16/03/2011 - 20:54 von Kristian Domke | Report spam
Hallo Gemeinde

Ich habe das hier schon mal vor einigen Monaten gefragt, leider ist da
wenig rum gekommen, und ich hab mir dann mit Windows geholfen.

Nun stellt sich das aber wieder. Also frage ich nochmal:

Kennt irgendjemand ein Programm, mit dem ich ein Live-CD sinnvoll
brennen kann? Ich habe alle Daten, somit kann ich das fast beliebig
umkonvertieren. Meine Lieblingsversion wàre eigentlich das vorhandene
CUE/BIN (CUE/WAV) Image zu nutzen. Aber alle Programme, die ich probiert
habe brennen entweder die "Lücken" zwischen den Tracks als Stille
(LiquidCD, Toast ...) oder erkennen das Image gar nicht erst (Burn).
Unter Windows kann ich es hervorragend mit Burrrrn brennen, von daher
denke ich, dass mein Image in Ordnung ist. Die Wave sowieso, aber das
Cue-Sheet scheint auch in Ordnung zu sein. Ich kann ja den Anfang
nochmal posten.

Kennt da irgendjemand irgendwas?

Kristian


PERFORMER "Trial"
TITLE "Trial Live!"

FILE "Trial Live!.wav" WAVE
TRACK 01 AUDIO
TITLE "Lay Down Sally"
SONGWRITER "Eric Clapton"
PERFORMER "Trial"
INDEX 01 00:00:00
TRACK 02 AUDIO
TITLE "Dead Flowers"
PERFORMER "Trial"
SONGWRITER "Mick Jagger / Keith Richards"
INDEX 00 04:10:37
INDEX 01 04:25:07
TRACK 03 AUDIO
TITLE "Against the Wind"
PERFORMER "Trial"
SONGWRITER "Bob Seger"
INDEX 00 08:21:37
INDEX 01 08:27:19
...
 

Lesen sie die antworten

#1 Michael Kallweitt
16/03/2011 - 22:10 | Warnen spam
Kristian Domke schrieb:

Kennt irgendjemand ein Programm, mit dem ich ein Live-CD sinnvoll brennen kann?
Ich habe alle Daten, somit kann ich das fast beliebig umkonvertieren. Meine
Lieblingsversion wàre eigentlich das vorhandene CUE/BIN (CUE/WAV) Image zu
nutzen. Aber alle Programme, die ich probiert habe brennen entweder die
"Lücken" zwischen den Tracks als Stille (LiquidCD, Toast ...) oder erkennen das
Image gar nicht erst (Burn).



Ohne es ausprobiert zu haben, meine ich, dass cdrecord (ggf. mit entsprechendem
Frontend) das hinbekommen sollte.


www.wasfuereintheater.com - Neue Theaterprojekte im Ruhrpott
"As an artist, I'm reporting the big things and the small things. And
sometimes you don't know which is which." Maira Kalman,
http://bit.ly/a53n2K

Ähnliche fragen