avconv

15/05/2014 - 10:20 von Jakob Schürz | Report spam
Hi!

Ich weiß nicht, ob ich hier mit meinem Anliegen richtig bin...

Wenn ich mit clive Videos von Youtube runterlade und dann mit avconv die
Audiospur extrahieren will, gibt es bei manchen Videos einen Fehler.

Folgendes Video ist so ein Kandidat:

https://www.youtube.com/watch?v=Fq-UtKrQM9Q


$ avconv -i Die\ Schicksalsgesetze\ Dr\ Rüdiger\ Dahlke.webm -vn -acodec
libvorbis Die_Schicksalsgesetze_Dr_Rüdiger_Dahlke.ogg
avconv version 9.10-6:9.10-1~bpo70+1, Copyright (c) 2000-2013 the Libav
developers
built on Jan 5 2014 21:08:22 with gcc 4.7 (Debian 4.7.2-5)
Input #0, matroska,webm, from 'Die Schicksalsgesetze Dr Rüdiger
Dahlke.webm':
Duration: 01:33:22.37, start: 0.000000, bitrate: N/A
Stream #0.0(eng): Video: vp8, yuv420p, 640x360, PAR 1:1 DAR 16:9,
1k fps, 1k tbr, 1k tbn (default)
Stream #0.1: Audio: vorbis, 44100 Hz, stereo, fltp (default)
File 'Die_Schicksalsgesetze_Dr_Rüdiger_Dahlke.ogg' already exists.
Overwrite ? [y/N] y
Output #0, ogg, to 'Die_Schicksalsgesetze_Dr_Rüdiger_Dahlke.ogg':
Metadata:
encoder : Lavf54.20.3
Stream #0.0: Audio: libvorbis, 44100 Hz, stereo, fltp (default)
Stream mapping:
Stream #0:1 -> #0:0 (vorbis -> libvorbis)
Press ctrl-c to stop encoding
[ogg @ 0x8c5c40] Application provided invalid, non monotonically
increasing dts to muxer in stream 0: 51780 >= 51465
av_interleaved_write_frame(): Invalid argument


Gehe ich allerdings mit dem selben Video den Umweg
avconv -i $INPUT.webm -vn $OUTPUT.ogg

wird das ein flac-Audiofile.
Dieses kann ich dann problemlos mit dem Parameter -acodec libvorbis in
ein ogg/vorbis umwandeln.

Was könnte das Problem sein, dass die Umwandlung nicht direkt in ein
ogg/vorbis gelingt? Dieses Problem tritt nur bei manchen Videos auf (und
daher ist mein incron-Skript eben nicht wasserdicht brauchbar...)

lg jakob


Zum AUSTRAGEN schicken Sie eine Mail an debian-user-german-REQUEST@lists.debian.org
mit dem Subject "unsubscribe". Probleme? Mail an listmaster@lists.debian.org (engl)
Archive: https://lists.debian.org/53747770.2050900@nurfuerspam.de
 

Lesen sie die antworten

#1 Jakob Schürz
15/05/2014 - 10:50 | Warnen spam
Na dann mach ich mal die Ingrid...

Am 2014-05-15 10:14, schrieb Jakob Schürz:
Hi!

Ich weiß nicht, ob ich hier mit meinem Anliegen richtig bin...

Wenn ich mit clive Videos von Youtube runterlade und dann mit avconv die
Audiospur extrahieren will, gibt es bei manchen Videos einen Fehler.




[...]

Gehe ich allerdings mit dem selben Video den Umweg
avconv -i $INPUT.webm -vn $OUTPUT.ogg

wird das ein flac-Audiofile.
Dieses kann ich dann problemlos mit dem Parameter -acodec libvorbis in
ein ogg/vorbis umwandeln.



Klappt leider auch nicht immer... denn ein file auf das erzeugte ogg ergibt:

$ file Die_Schicksalsgesetze_Dr_Rüdiger_Dahlke.ogg
Die_Schicksalsgesetze_Dr_Rüdiger_Dahlke.ogg: floppy with old FAT
filesystem 320k, Media descriptor 0xff

Dann hab ich das gefunden


http://ubuntuforums.org/showthread.php?t!27620

und ffmpeg wieder installiert... Und jetzt klappt der Aufruf mit ffmpeg
offenbar klaglos...

lg jakob


Zum AUSTRAGEN schicken Sie eine Mail an
mit dem Subject "unsubscribe". Probleme? Mail an (engl)
Archive: https://lists.debian.org/

Ähnliche fragen