Cue Datei nach Audacity Label Datei konvertieren

27/09/2011 - 11:23 von Karl Teuschler | Report spam
Hallo,

Mein Problem ist, das in Jedem Track-Abschnitt immer nur die Start-
Zeit(INDEX) des Tracks steht, und die Endzeit des ersten Tracks ergibt
sich aus der Startzeit des 2. Tracks, usw.

Wie bekomme ich nun die Start, Endzeit, PERFORMER, TITEL des 1. Tracks
ausgegeben, wenn ich den 2. Track fertig ausgelesen habe?

Die Audacity Label Datei soll so aussehen:
#
10,69 219,61 Kool And The Gang - Fresh
[...]
#

Eine Cue Datei sieht so aus:
#-
FILE "/media/DJGrooveAmp/FLAC/Mixxx/Recordings/
09_21_2011-13h_09m_59s.wav" WAVE
TRACK 01 AUDIO
TITLE Fresh
PERFORMER Kool And The Gang
INDEX 01 00:10:69
TRACK 02 AUDIO
TITLE Get Down Saturday Night
PERFORMER Oliver Cheatham
INDEX 01 03:39:61
TRACK 03 AUDIO
TITLE Jump To The Beat
PERFORMER Stacy Lattisaw
INDEX 01 07:08:53
#-

Vielen Dank im Voraus
Karl
 

Lesen sie die antworten

#1 Cyrus Kriticos
28/09/2011 - 07:32 | Warnen spam
On 09/27/2011 11:23 AM, Karl Teuschler wrote:

Mein Problem ist, das in Jedem Track-Abschnitt immer nur die Start-
Zeit(INDEX) des Tracks steht, und die Endzeit des ersten Tracks ergibt
sich aus der Startzeit des 2. Tracks, usw.

Wie bekomme ich nun die Start, Endzeit, PERFORMER, TITEL des 1. Tracks
ausgegeben, wenn ich den 2. Track fertig ausgelesen habe?

Die Audacity Label Datei soll so aussehen:
#
10,69 219,61 Kool And The Gang - Fresh
[...]
#

Eine Cue Datei sieht so aus:
#-
FILE "/media/DJGrooveAmp/FLAC/Mixxx/Recordings/
09_21_2011-13h_09m_59s.wav" WAVE
TRACK 01 AUDIO
TITLE Fresh
PERFORMER Kool And The Gang
INDEX 01 00:10:69
TRACK 02 AUDIO
TITLE Get Down Saturday Night
PERFORMER Oliver Cheatham
INDEX 01 03:39:61
TRACK 03 AUDIO
TITLE Jump To The Beat
PERFORMER Stacy Lattisaw
INDEX 01 07:08:53
#-



Wo kommt bei Deinem Beispiel in der Zieldatei die "219,61" her?

Wie sieht die Notation für die "10,69" aus, wenn die Eingabe nicht
"00:10:69" lautet sondern wie im letzten Track "07:08:53"?

Soll die nàchste Zeile dann so aussehen?

??39,61 ???,?? Oliver Cheatham - Get Down Saturday Night

An den Fragezeichen ist die Notation unklar.

Grüße | beidhàndige Rückhand
Cyrus | http://www.youtube.com/watch?v=h2iBJi9sz2c

Ähnliche fragen