Was ist das für ein Track?

11/11/2012 - 12:52 von Heino Tiedemann | Report spam
Hallo,


ich benutze hier Cdrecord-ProDVD-ProBD-Clone 3.01a08 auf FreeBSD


eine Audio CD


cdrecord dev=cdr -toc

Cdrecord-ProDVD-ProBD-Clone 3.01a08 (i386-unknown-freebsd9.0) Copyright (C) 1995-2012 Joerg Schilling
scsidev: '1,0,0'
scsibus: 1 target: 0 lun: 0
Using libscg version 'schily-0.9'.
Device type : Removable CD-ROM
Version : 0
Response Format: 1
Vendor_info : 'PLEXTOR '
Identifikation : 'CD-R PX-W5224A'
Revision : '1.04'
Device seems to be: Generic mmc CD-RW.
Using generic SCSI-3/mmc CD-R/CD-RW driver (mmc_cdr).
Driver flags : MMC-3 SWABAUDIO BURNFREE VARIREC FORCESPEED SPEEDREAD SINGLESESSION HIDECDR
Supported modes: TAO PACKET SAO SAO/R96P SAO/R96R RAW/R16 RAW/R96P RAW/R96R
first: 1 last 9
track: 1 lba: 0 ( 0) 00:02:00 adr: 1 control: 0 mode: -1
track: 2 lba: 27250 ( 109000) 06:05:25 adr: 1 control: 0 mode: -1
track: 3 lba: 52587 ( 210348) 11:43:12 adr: 1 control: 0 mode: -1
track: 4 lba: 78990 ( 315960) 17:35:15 adr: 1 control: 0 mode: -1
track: 5 lba: 101457 ( 405828) 22:34:57 adr: 1 control: 0 mode: -1
track: 6 lba: 127020 ( 508080) 28:15:45 adr: 1 control: 0 mode: -1
track: 7 lba: 145395 ( 581580) 32:20:45 adr: 1 control: 0 mode: -1
track: 8 lba: 172980 ( 691920) 38:28:30 adr: 1 control: 0 mode: -1
track: 9 lba: 192662 ( 770648) 42:50:62 adr: 1 control: 0 mode: -1
track:lout lba: 215390 ( 861560) 47:53:65 adr: 1 control: 0 mode: -1


Was bedeute bitte der letzte Eintrag? Wie komme ich an en ran?


Heino
 

Lesen sie die antworten

#1 Gunther Dietrich
11/11/2012 - 14:12 | Warnen spam
Heino Tiedemann wrote:

[...]
track: 9 lba: 192662 ( 770648) 42:50:62 adr: 1 control: 0 mode: -1
track:lout lba: 215390 ( 861560) 47:53:65 adr: 1 control: 0 mode: -1


Was bedeute bitte der letzte Eintrag? Wie komme ich an en ran?



"lout" durfte eine Abkurzung fur "Lead-Out" (siehe
<https://de.wikipedia.org/wiki/Lead-Out>) sein.



Grusse,

Gunther

Ähnliche fragen